Кот в сапогах / Nagagutsu wo Haita Neko [Movie] [Без хардсаба] [2x RUS(int)] [1969, приключения, комедия, сказка, DVDRip] [HWP]

Страницы:  1

Ответить
Автор
Сообщение

Deep Fusion

Стаж: 7 лет 2 месяца

Сообщений: 114

Deep Fusion · 25-Сен-11 22:51 (7 лет 2 месяца назад, ред. 26-Сен-11 20:12)

Кот в сапогах / Nagagutsu wo Haita Neko
Страна: Япония
Год выпуска: 1969 г.
Жанр: приключения, комедия, сказка
Тип: Movie
Продолжительность: 80 мин.
Режиссер: Ябуки Кимио
Студия: TOEI Animation
Описание: Никогда не унывающий, всегда готовый к проказам и острый на язык кот по имени Перро впадает в немилость могущественного кошачьего властелина, который отправляет в погоню за ним своих лучших агентов. Но это только начало головокружительных приключений всеми любимого Кота в сапогах! Ещё ему предстоит отправиться в бой вместе с армией мышиного короля, одолеть страшного людоеда Люцифера, сделать из бедного парня настоящего маркиза и женить его на принцессе!
Качество: DVDRip
Тип релиза: Без хардсаба
Формат видео: AVI | Совместимо с бытовыми плеерами
Релиз:
Автор рипа: Deep Fusion
Видео: 704x304 (2.32:1), 23.976 fps, XviD build 64 ~2078 kbps avg, 0.41 bit/pixel
Аудио: 48 kHz, AC3 Dolby Digital, 2/0 (L,R) ch, ~128.00 kbps avg Язык Русский (в составе контейнера) ; Озвучка: Союзмультфильм (дубляж)
Аудио 2: 48 kHz, AC3 Dolby Digital, 3/2 (L,C,R,l,r) + LFE ch, ~384.00 kbps avg Язык Русский (в составе контейнера) ; Озвучка 2: MC Ent. (многоголосый закадровый)
Media Info
General
Complete name : D:\Down\nagagutsu_wo_haita_neko.avi
Format : AVI
Format/Info : Audio Video Interleave
File size : 1.46 GiB
Duration : 1h 20mn
Overall bit rate : 2 606 Kbps
Director : Deep Fusion
Writing application : VirtualDubMod 1.5.10.3 | www.virtualdub-fr.org || (build 2550/release)
Comment : Релиз от: Rip Studio
Video
ID : 0
Format : MPEG-4 Visual
Format profile : Advanced [email protected]
Format settings, BVOP : 1
Format settings, QPel : No
Format settings, GMC : No warppoints
Format settings, Matrix : Custom
Codec ID : XVID
Codec ID/Hint : XviD
Duration : 1h 20mn
Bit rate : 2 080 Kbps
Width : 704 pixels
Height : 304 pixels
Display aspect ratio : 2.35:1
Frame rate : 23.976 fps
Color space : YUV
Chroma subsampling : 4:2:0
Bit depth : 8 bits
Scan type : Progressive
Compression mode : Lossy
Bits/(Pixel*Frame) : 0.405
Stream size : 1.16 GiB (80%)
Writing library : XviD 64
Audio #1
ID : 1
Format : AC-3
Format/Info : Audio Coding 3
Mode extension : CM (complete main)
Format settings, Endianness : Big
Codec ID : 2000
Duration : 1h 20mn
Bit rate mode : Constant
Bit rate : 128 Kbps
Channel(s) : 2 channels
Channel positions : Front: L R
Sampling rate : 48.0 KHz
Bit depth : 16 bits
Compression mode : Lossy
Stream size : 73.3 MiB (5%)
Alignment : Split accross interleaves
Interleave, duration : 42 ms (1.00 video frame)
Interleave, preload duration : 500 ms
Audio #2
ID : 2
Format : AC-3
Format/Info : Audio Coding 3
Mode extension : CM (complete main)
Format settings, Endianness : Big
Codec ID : 2000
Duration : 1h 20mn
Bit rate mode : Constant
Bit rate : 384 Kbps
Channel(s) : 6 channels
Channel positions : Front: L C R, Side: L R, LFE
Sampling rate : 48.0 KHz
Bit depth : 16 bits
Compression mode : Lossy
Stream size : 220 MiB (15%)
Alignment : Split accross interleaves
Interleave, duration : 42 ms (1.00 video frame)
Interleave, preload duration : 500 ms
Скриншоты
Download
Для скачивания .torrent файлов необходима регистрация
Сайт не распространяет и не хранит электронные версии произведений, а лишь предоставляет доступ к создаваемому пользователями каталогу ссылок на торрент-файлы, которые содержат только списки хеш-сумм
[Профиль]  [ЛС] 

Ich Lauf

VIP (Заслуженный)

Стаж: 10 лет 1 месяц

Сообщений: 11537

Ich Lauf · 25-Сен-11 23:00 (спустя 8 мин., ред. 26-Сен-11 20:00)

[Цитировать] 

скрытый текст
Нет отличий http://rutracker.org/forum/viewtopic.php?t=1907922#4
! не оформлено

проверено
[Профиль]  [ЛС] 

sova2011

Стаж: 7 лет 6 месяцев

Сообщений: 2


sova2011 · 22-Окт-11 15:24 (спустя 26 дней)

[Цитировать] 

долго я его искал.
Огромное спасибо!
Это мультик моего детства
[Профиль]  [ЛС] 

headcrasher

Стаж: 8 лет 11 месяцев

Сообщений: 39


headcrasher · 13-Ноя-11 00:01 (спустя 21 день)

[Цитировать] 

это та озвучка, где кота Георгий Вицин озвучивает??????????????? уже давно ищу эту!!!
[Профиль]  [ЛС] 

Калифат

Стаж: 7 лет 1 месяц

Сообщений: 2


Калифат · 29-Ноя-11 21:49 (спустя 16 дней)

[Цитировать] 

Белиссимо!!!! 100% Я снова в детстве!!!! Поклон низкий вам.
[Профиль]  [ЛС] 

OldDaos

Стаж: 8 лет 5 месяцев

Сообщений: 365

OldDaos · 16-Дек-11 13:41 (спустя 16 дней)

[Цитировать] 

Я в детстве смотрел его 16 раз. Выходил из кинотеатра и снова заходил.
[Профиль]  [ЛС] 

andwin2z

Стаж: 8 лет 8 месяцев

Сообщений: 9


andwin2z · 25-Янв-12 20:25 (спустя 1 месяц 9 дней)

[Цитировать] 

мой любимый мультик, будто снова в детстве =)
[Профиль]  [ЛС] 

adder38

Стаж: 9 лет

Сообщений: 242


adder38 · 18-Фев-12 11:29 (спустя 23 дня)

[Цитировать] 

OldDaos писал(а):
Я в детстве смотрел его 16 раз. Выходил из кинотеатра и снова заходил.
Я 17. И еще один раз по телевизору.
[Профиль]  [ЛС] 

Albertsi

Стаж: 8 лет 1 месяц

Сообщений: 151

Albertsi · 13-Апр-12 10:21 (спустя 1 месяц 23 дня)

[Цитировать] 

Да-да..... славное время было.... и просто ОТЛИЧНЫЙ мульт.... "НУ По...." отдыхает
[Профиль]  [ЛС] 

burdron1

Стаж: 10 лет 1 месяц

Сообщений: 3


burdron1 · 21-Ноя-12 17:58 (спустя 7 месяцев)

[Цитировать] 

А есть продолжение? где он путешествует?
[Профиль]  [ЛС] 

fishka-omul

Стаж: 6 лет 4 месяца

Сообщений: 32


fishka-omul · 16-Апр-17 02:33 (спустя 4 года 4 месяца)

[Цитировать] 

Классный мульт! Еще раз окунулась в детство!
[Профиль]  [ЛС] 
 
Ответить
Loading...
Error