Лунный свет / Lichtmond (Giorgio Koppehele, Martin Koppehele) [2010, Music / Relax, BDRip. 720p.]

Страницы:  1

Ответить
Автор
Сообщение

Yaroslav0

Moderator

Стаж: 10 лет 6 месяцев

Сообщений: 3203

Yaroslav0 · 27-Ноя-10 11:34 (7 лет 6 месяцев назад)

Лунный свет / Lichtmond
...Год выпуска: 2010
...Страна: Германия
...Жанр: Music / Relax
...Продолжительность: 48mn 31s
...Перевод: Не требуется
...Русские субтитры: нет
...Режиссер: Giorgio Koppehele, Martin Koppehele
...Источник: BDRemux 1080i
...Описание: Братья Giorgio & Martin Cope (Avenue Music), авторы пользующейся заслуженной популярностью среди любителей многоканальной музыки, и не только, серии Ambra, представляют новый проект - "Lichtmond" ("Лунный свет").
Альбом в стиле эмбиент-поп, выпущен на трех носителях: CD, DVD и Blu-ray. Визуальная часть на DVD и BD представляет собой анимацию испанского художника-мультипликатора Diego M. Bonati, студия Imago-D - фантастические миры, созданные специально для "Lichtmond".
...Качество: BDRip 720p
...Формат: MKV
...Видео кодек: x264
...Аудио кодек: DTS
...Видео: AVC, 1280x720 (16/9), 29.970 fps, 6 766 Kbps (0.238 bit/pixel)
...Аудио: DTS, 48.0 KHz, 6 ch, 1 510 Kbps, CBR (German)
Трек лист:
1 Erwachen 1:36
2 Morgenrot 4:48
3 Sounds of Distance 4:23
4 Wenn des Mondes Strahl 6:10
5 Der Orangenzweig 5:19
6 Ich und Du 5:54
7 Shine on me 6:20
8 Serenity 6:23
9 Fruhlingstanzerin 4:19
10 Abendrot 1:59
Скриншоты
Download
Для скачивания .torrent файлов необходима регистрация
Сайт не распространяет и не хранит электронные версии произведений, а лишь предоставляет доступ к создаваемому пользователями каталогу ссылок на торрент-файлы, которые содержат только списки хеш-сумм
[Профиль]  [ЛС] 

igorekas48

Top Seed 03* 160r

Стаж: 9 лет 7 месяцев

Сообщений: 2236

igorekas48 · 30-Ноя-10 07:53 (спустя 2 дня 20 часов)

[Цитировать] 

Только сейчас отписываюсь потому что ещё под впечатлением...спасибо, просто прекрасный фильм, а музыка просто расслабляет! Как будто побывал в других мирах!
[Профиль]  [ЛС] 

iperov

Стаж: 11 лет 7 месяцев

Сообщений: 540

iperov · 08-Дек-10 18:56 (спустя 8 дней, ред. 09-Дек-10 23:25)

[Цитировать] 

да отличная релаксовая штука.
Имхо аналогичного видео можно нарыть в демосценах http://rutracker.org/forum/viewtopic.php?t=3257834
[Профиль]  [ЛС] 

LX.

Стаж: 9 лет 3 месяца

Сообщений: 96


LX. · 02-Фев-11 03:01 (спустя 1 месяц 24 дня)

[Цитировать] 

выложите плиз медиа инфо кто-нить...
[Профиль]  [ЛС] 

JackVR

Стаж: 10 лет 5 месяцев

Сообщений: 35

JackVR · 05-Фев-11 22:37 (спустя 3 дня)

[Цитировать] 

Чуваки, вы ж кроме аватара не видели ничего. Вы бы на игры посмотрели современные, потом восхищались этой устаревшей графикой...
[Профиль]  [ЛС] 

lxnt

Стаж: 8 лет 1 месяц

Сообщений: 226

lxnt · 18-Фев-11 14:22 (спустя 12 дней)

[Цитировать] 

Спасибо за релиз.
Никто не в курсе, как произносится фамилия авторов? (Koppehele)
[Профиль]  [ЛС] 

Акина5000

Стаж: 7 лет 11 месяцев

Сообщений: 90

Акина5000 · 25-Фев-11 14:26 (спустя 7 дней)

[Цитировать] 

lxnt писал(а):
Спасибо за релиз.
Никто не в курсе, как произносится фамилия авторов? (Koppehele)
дурачек
[Профиль]  [ЛС] 

K1pa

Стаж: 9 лет

Сообщений: 14

K1pa · 30-Мар-11 20:22 (спустя 1 месяц 5 дней)

[Цитировать] 

Всё-бы хорошо, но...
Накопитель 2в1, т.е. и плеер он-же. WD Elements Play. На экране панели только картинка, Звука нет.
На компе всё beauty, подскажите, как это лечится...
[Профиль]  [ЛС] 

LX.

Стаж: 9 лет 3 месяца

Сообщений: 96


LX. · 30-Мар-11 22:14 (спустя 1 час 51 мин.)

[Цитировать] 

K1pa писал(а):
WD Elements Play
в нем похоже нет DTS декодера в стерео, услышать сможете только если по оптике в ресивер поддерживающий DTS заведёте. либо переконвертировав самостоятельно звук.
[Профиль]  [ЛС] 

DeepSoul

Стаж: 10 лет 3 месяца

Сообщений: 480

DeepSoul · 31-Мар-11 13:20 (спустя 15 часов)

[Цитировать] 

Может есть такое же видео в 1080р?
[Профиль]  [ЛС] 

Yaroslav0

Moderator

Стаж: 10 лет 6 месяцев

Сообщений: 3203

Yaroslav0 · 31-Мар-11 13:24 (спустя 4 мин.)

[Цитировать] 

DeepSoul писал(а):
Может есть такое же видео в 1080р?
Blu-ray 1080i
BDRemux, 1080i
[Профиль]  [ЛС] 

torrac033

Стаж: 9 лет 3 месяца

Сообщений: 8

torrac033 · 18-Май-11 21:16 (спустя 1 месяц 18 дней)

[Цитировать] 

надеюсь у этого с звуковыми дорожками все в порядке..
а то прошлый раз скачал другого размером 4 ГБ с перегруженными дорожками( ппц просто!
[Профиль]  [ЛС] 

ya-ka

Стаж: 7 лет 6 месяцев

Сообщений: 49


ya-ka · 02-Окт-11 16:49 (спустя 4 месяца 14 дней)

[Цитировать] 

Фильм понравился, но с прослушиванием ДТС на "железном" медиаплеере возникла проблема (не умеет он играть ДТС), поэтому пришлось сделать дополнительную MP3 дорожку.
[Профиль]  [ЛС] 

Shraibikus

Стаж: 9 лет 1 месяц

Сообщений: 734

Shraibikus · 04-Янв-12 15:31 (спустя 3 месяца 1 день, ред. 04-Янв-12 15:31)

[Цитировать] 

Рипнуть можно было и по-качественнее...
mediainfo
General
Unique ID : 245113560664580643227891175109464220926 (0xB8672795909D8695BE0552D675D4E4FE)
Complete name : F:\TORRENTS\Lichtmond (720p DTS).mkv
Format : Matroska
File size : 2.79 GiB
Duration : 48mn 31s
Overall bit rate : 8 237 Kbps
Encoded date : UTC 2010-11-19 21:43:00
Writing application : mkvmerge v3.3.0 ('Language') built on Mar 24 2010 14:59:24
Writing library : libebml v0.8.0 + libmatroska v0.9.0
Video
ID : 1
Format : AVC
Format/Info : Advanced Video Codec
Format profile : [email protected]
Format settings, CABAC : Yes
Format settings, ReFrames : 4 frames
Codec ID : V_MPEG4/ISO/AVC
Duration : 48mn 31s
Bit rate : 6 766 Kbps
Width : 1 280 pixels
Height : 720 pixels
Display aspect ratio : 16:9
Frame rate : 29.970 fps
Color space : YUV
Chroma subsampling : 4:2:0
Bit depth : 8 bits
Scan type : Progressive
Bits/(Pixel*Frame) : 0.245
Stream size : 2.22 GiB (80%)
Writing library : x264 core 92 r1510 33d382a
Encoding settings : cabac=1 / ref=3 / deblock=1:0:0 / analyse=0x3:0x113 / me=hex / subme=7 / psy=1 / psy_rd=1.00:0.00 / mixed_ref=1 / me_range=16 / chroma_me=1 / trellis=1 / 8x8dct=1 / cqm=0 / deadzone=21,11 / fast_pskip=1 / chroma_qp_offset=-2 / threads=3 / sliced_threads=0 / nr=0 / decimate=1 / interlaced=0 / constrained_intra=0 / bframes=3 / b_pyramid=2 / b_adapt=1 / b_bias=0 / direct=3 / wpredb=1 / wpredp=2 / keyint=250 / keyint_min=25 / scenecut=40 / intra_refresh=0 / rc_lookahead=40 / rc=2pass / mbtree=1 / bitrate=6766 / ratetol=1.0 / qcomp=0.60 / qpmin=10 / qpmax=51 / qpstep=4 / cplxblur=20.0 / qblur=0.5 / ip_ratio=1.40 / aq=1:1.00
Audio
ID : 2
Format : DTS
Format/Info : Digital Theater Systems
Codec ID : A_DTS
Duration : 48mn 31s
Bit rate mode : Constant
Bit rate : 1 510 Kbps
Channel(s) : 6 channels
Channel positions : Front: L C R, Side: L R, LFE
Sampling rate : 48.0 KHz
Bit depth : 24 bits
Compression mode : Lossy
Stream size : 524 MiB (18%)
Title : DTS 1536kbps
Language : German
[Профиль]  [ЛС] 

RoxyRash

Стаж: 8 лет 7 месяцев

Сообщений: 6


RoxyRash · 19-Апр-12 18:12 (спустя 3 месяца 15 дней)

[Цитировать] 

Впечатления очччень большие. Красиво. Спасибо.
[Профиль]  [ЛС] 

SHAKIR79

Top Loader 01* 100GB

Стаж: 9 лет 1 месяц

Сообщений: 76

SHAKIR79 · 29-Сен-12 08:24 (спустя 5 месяцев 9 дней)

[Цитировать] 

Есть уже второй диск 2012 Lichtmond 2- Universe of Light
[Профиль]  [ЛС] 

igorekas48

Top Seed 03* 160r

Стаж: 9 лет 7 месяцев

Сообщений: 2236

igorekas48 · 29-Сен-12 13:15 (спустя 4 часа, ред. 29-Сен-12 13:15)

[Цитировать] 

SHAKIR79
Так это на Амазоне, пока сюда дойдёт! P.S. А я уже скачал вторую часть и точно очень...ЛЮКС!
[Профиль]  [ЛС] 

SHAKIR79

Top Loader 01* 100GB

Стаж: 9 лет 1 месяц

Сообщений: 76

SHAKIR79 · 29-Сен-12 15:41 (спустя 2 часа 25 мин.)

[Цитировать] 

igorekas48 писал(а):
55473252SHAKIR79
Так это на Амазоне, пока сюда дойдёт! P.S. А я уже скачал вторую часть и точно очень...ЛЮКС!
Я так-то тоже скачал рип на 1080
[Профиль]  [ЛС] 

MaxM

Стаж: 11 лет 1 месяц

Сообщений: 373

MaxM · 02-Янв-13 13:20 (спустя 3 месяца 2 дня)

[Цитировать] 

Лунный свет - это Mondlicht. Lichtmond можно перевести как "Мир света".
Думаю, Koppehele надо произносить "Коппеле".
[Профиль]  [ЛС] 

Drakula5

Стаж: 8 лет 1 месяц

Сообщений: 811


Drakula5 · 18-Ноя-15 16:42 (спустя 2 года 10 месяцев)

[Цитировать] 

Графика такого типа никогда не устареет. Это как Сальвадор Дали - только в динамике... СПАСИБО!!!!
[Профиль]  [ЛС] 
 
Ответить
Loading...
Error