Спасти и Завести / Забытые машины / Lost in Transmission / 6 серии из 6 (History) [2015, Реалити шоу, HDTVRip]

Страницы:  1

Ответить
Автор
Сообщение

р0бинз0н

Стаж: 8 лет 9 месяцев

Сообщений: 268

р0бинз0н · 16-Авг-15 19:05 (2 года 10 месяцев назад, ред. 16-Окт-15 19:54)

Спасти и Завести / Lost in Transmission
Дата/Год выпуска: 2015
Страна: USA
Жанр: Реалити шоу
Продолжительность: 00:40:00
Перевод: Профессиональный (двухголосый закадровый)
Телеканал: History
Описание: Нестандартное чувство юмора – отличительная черта Рутледжа Вуда, которая не всегда приходится по вкусу его напарнику Джорджу Фланигену. Но именно удачная шутка, произнесенная в нужный момент, помогает ребятам справляться с их непростой миссией – спасением классических американских автомобилей от прямого пути на свалку.
качество: HDTVRip
формат: AVI
Видео: Xvid 720x400 25fps 1500 kbps
Аудио: MP3 48000Hz stereo 192kbps
Доп. информация: imdb / АНОНС
MediaInfo
General
Complete name : C:\Users\Videos\Lost in Transmission\01. Drowned DeLorean.avi
Format : AVI
Format/Info : Audio Video Interleave
File size : 487 MiB
Duration : 39mn 41s
Overall bit rate : 1 715 Kbps
Writing application : VirtualDubMod 1.5.10.3 | www.virtualdub-fr.org || (build 2550/release)
Writing library : VirtualDubMod build 2550/release
Video
ID : 0
Format : MPEG-4 Visual
Format profile : Advanced [email protected]
Format settings, BVOP : 2
Format settings, QPel : No
Format settings, GMC : No warppoints
Format settings, Matrix : Default (MPEG)
Codec ID : XVID
Codec ID/Hint : XviD
Duration : 39mn 41s
Bit rate : 1 513 Kbps
Width : 720 pixels
Height : 400 pixels
Display aspect ratio : 16:9
Frame rate : 25.000 fps
Color space : YUV
Chroma subsampling : 4:2:0
Bit depth : 8 bits
Scan type : Progressive
Compression mode : Lossy
Bits/(Pixel*Frame) : 0.210
Stream size : 429 MiB (88%)
Writing library : XviD 1.2.1 (UTC 2008-12-04)
Audio
ID : 1
Format : MPEG Audio
Format version : Version 1
Format profile : Layer 3
Codec ID : 55
Codec ID/Hint : MP3
Duration : 39mn 41s
Bit rate mode : Constant
Bit rate : 192 Kbps
Channel(s) : 2 channels
Sampling rate : 48.0 KHz
Compression mode : Lossy
Stream size : 54.5 MiB (11%)
Alignment : Aligned on interleaves
Interleave, duration : 40 ms (1.00 video frame)
Interleave, preload duration : 504 ms
Writing library : LAME3.99.5Є
Скриншоты
Утонувший ДеЛориан. Рутледж и Джордж пытаются воскресить Делореан 1981 года, которая была затоплена во время урагана Сэнди.

Вещь. Рутледж и Джордж должны всего лишь за две недели превратить ржавый VW Thing 1974 года, в мощную тачку для внедорожных поездок.

Ford F100. Рутледж и Джордж попытаются восстановить брошенный Форд F100 1964года, который простоял на ферме в течение четырех лет.

Ржавый внедорожник. Рутледж и Джордж взялись за восстановление Toyota FJ 1972 года, которая простояла в гараже 20 лет.

Лети как орёл. Рутледж и Джордж поделятся своим хитроумным планом по превращению классического AMC Eagle 1980-х в самый настоящий хот-род!
Между тем, Рут вплотную приближается к исполнению своей заветной мечты: он собирается купить пикап Ford F1 1950-го года выпуска.

Возвращение кабриолета. Рутледж и Джордж восстановливают Форд кабриолет XL 1968года, для больного раком владельца.
Между тем они починят 1949 года Chevy Long Bed грузовик в качестве подарка для жены Рут.
Download
Для скачивания .torrent файлов необходима регистрация
Сайт не распространяет и не хранит электронные версии произведений, а лишь предоставляет доступ к создаваемому пользователями каталогу ссылок на торрент-файлы, которые содержат только списки хеш-сумм
[Профиль]  [ЛС] 

skyworker

Стаж: 11 лет 4 месяца

Сообщений: 640

skyworker · 22-Авг-15 17:59 (спустя 5 дней)

[Цитировать] 

Всё равно спасибо
[Профиль]  [ЛС] 

bbrick

Стаж: 8 лет 2 месяца

Сообщений: 2


bbrick · 30-Авг-15 15:52 (спустя 7 дней, ред. 31-Авг-15 21:40)

[Цитировать] 

Блиннн! Куда все делись! Хочу на Вуда посмотреть, прикольный чувак, может на Top Gear America похоже будет!
Рутледж душка... Молодец! Делориан прикольная тачка.
[Профиль]  [ЛС] 
 
Ответить
Loading...
Error