Михаил Задорнов - Реформа НЕОбразования [2013, сатира, DVB]

Страницы:  1

Ответить
Автор
Сообщение

igor litvinenko

Top User 02

Стаж: 8 лет 11 месяцев

Сообщений: 108

igor litvinenko · 09-Ноя-13 15:30 (5 лет 1 месяц назад, ред. 09-Ноя-13 15:31)

Михаил Задорнов - Реформа НЕОбразования
Год выпуска: 2013
Страна: Россия
Жанр: сатира
Продолжительность: 02:28:41
Описание: В новом проекте Михаил Задорнов в присущей ему манере анализирует образование молодежи в нашей стране.
качество: DVB
формат: MPG
Видео: MPEG-PS, 704х576, 4:3, 3737 Кбит/сек, 25,000 кадров/сек, PAL
Аудио: MPEG Audio, Layer 2, 192 Кбит/сек, 48,0 КГц, 2 канала
MediaInfo
Полное имя : E:\Михаил Задорнов - Реформа НЕОбразования.mpg
Формат : MPEG-PS
Размер файла : 4,16 Гбайт
Продолжительность : 2 ч. 28 м.
Режим общего битрейта : Переменный
Общий поток : 4009 Кбит/сек
Библиотека кодирования : (c) 1998-2012 Womble Multimedia, Inc. / MPEG Video Wizard DVD 5.0.1.100 (03/2011) / Sep 7 2012
Видео
Идентификатор : 224 (0xE0)
Формат : MPEG Video
Версия формата : Version 2
Профиль формата : [email protected]
Параметр BVOP формата : Да
Параметр матрицы формата : Выборочная
Параметр GOP формата : Variable
Продолжительность : 2 ч. 28 м.
Вид битрейта : Переменный
Битрейт : 3737 Кбит/сек
Максимальный битрейт : 15,0 Мбит/сек
Ширина : 704 пикселя
Высота : 576 пикселей
Соотношение сторон : 4:3
Частота кадров : 25,000 кадров/сек
Стандарт вещания : PAL
Цветовое пространство : YUV
Субдискретизация насыщенности : 4:2:0
Битовая глубина : 8 бит
Метод сжатия : С потерями
Бит/(Пиксели*Кадры) : 0.369
Размер потока : 3,88 Гбайт (93%)
Выравнивание : (c) 1998-2012 Womble Multimedia, Inc. / MPEG Video Wizard DVD 5.0.1.100 (03/2011) / Sep 7 2012
Заголовок : (c) 1998-2012 Womble Multimedia, Inc. / MPEG Video Wizard DVD 5.0.1.100 (03/2011) / Sep 7 2012
Библиотека кодирования : (c) 1998-2012 Womble Multimedia, Inc. / MPEG Video Wizard DVD 5.0.1.100 (03/2011) / Sep 7 2012
Аудио
Идентификатор : 192 (0xC0)
Формат : MPEG Audio
Версия формата : Version 1
Профиль формата : Layer 2
Режим : Dual mono
Расширение режима : MS Stereo
Продолжительность : 2 ч. 28 м.
Вид битрейта : Постоянный
Битрейт : 192 Кбит/сек
Каналы : 2 канала
Частота : 48,0 КГц
Метод сжатия : С потерями
Размер потока : 204 Мбайт (5%)
Скриншоты
Download
Для скачивания .torrent файлов необходима регистрация
Сайт не распространяет и не хранит электронные версии произведений, а лишь предоставляет доступ к создаваемому пользователями каталогу ссылок на торрент-файлы, которые содержат только списки хеш-сумм
[Профиль]  [ЛС] 

Igor Ru Tracker

Стаж: 7 лет 11 месяцев

Сообщений: 5

Igor Ru Tracker · 09-Ноя-13 17:51 (спустя 2 часа 20 мин.)

[Цитировать] 

Субъективно: а SATRip нет случайно, а то последние про Задорнова DVB?
[Профиль]  [ЛС] 

DI.MARRKUSS

Стаж: 8 лет 11 месяцев

Сообщений: 4

DI.MARRKUSS · 09-Ноя-13 19:13 (спустя 1 час 22 мин.)

[Цитировать] 

Что, опять нарезка?! Когда уже новые концерты будут никто не в курсе?
[Профиль]  [ЛС] 

evoxaler

Стаж: 8 лет 11 месяцев

Сообщений: 14


evoxaler · 09-Ноя-13 22:26 (спустя 3 часа, ред. 09-Ноя-13 22:26)

[Цитировать] 

ДА как бы сегодня по рен тв должен был быть новый концерт его (((((
блин это оно и есть очень жаль а я думал новый концерт ((((
[Профиль]  [ЛС] 

GamePlay

Стаж: 10 лет 6 месяцев

Сообщений: 72


GamePlay · 09-Ноя-13 23:00 (спустя 33 мин.)

[Цитировать] 

Ребята, так уже ж давно сказал что новых концертов не будет, всё завершил карьеру.
[Профиль]  [ЛС] 

NextFreir

Стаж: 11 лет 4 месяца

Сообщений: 66

NextFreir · 10-Ноя-13 00:14 (спустя 1 час 14 мин.)

[Цитировать] 

GamePlay писал(а):
61650674Ребята, так уже ж давно сказал что новых концертов не будет, всё завершил карьеру.
Где? Кому? Не найду информацию.
[Профиль]  [ЛС] 

Daizengar

Стаж: 8 лет 7 месяцев

Сообщений: 8

Daizengar · 31-Дек-13 17:15 (спустя 1 месяц 21 день)

[Цитировать] 

GamePlay писал(а):
61650674Ребята, так уже ж давно сказал что новых концертов не будет, всё завершил карьеру.
Михаил Николаевич написал в своём живом журнале от 11 декабря, о ближайших трех концертах 25, 27 и 28 декабря 2013 года в городах: Тверь, Великий Новгород и Санкт-Петербург. Не пойму, откуда вы эту информацию взяли, о завершении им карьеры. Не путайте людей.
[Профиль]  [ЛС] 

Shsergey71

Top User 06

Стаж: 11 лет 3 месяца

Сообщений: 396

Shsergey71 · 12-Янв-15 16:43 (спустя 1 год)

[Цитировать] 

Спасибо. качаю. если релизер не против, то добавлю этот концерт в сборник концертов http://rutracker.org/forum/viewtopic.php?t=1152884
[Профиль]  [ЛС] 
 
Ответить
Loading...
Error