Волчьи дети Амэ и Юки / Ookami Kodomo no Ame to Yuki / The Wolf Children Ame and Yuki [Movie] [Без хардсаба] [RUS(int), JAP, SUB] [2012, драма, повседневность, фантастика, BDRip] [HWP]

Страницы:  1

Ответить
Автор
Сообщение

zzzHELLPLAYERzzz

Стаж: 8 лет 5 месяцев

Сообщений: 1106

zzzHELLPLAYERzzz · 15-Мар-13 14:17 (5 лет 9 месяцев назад, ред. 15-Мар-13 14:38)

Волчьи дети Амэ и Юки
Ookami Kodomo no Ame to Yuki
The Wolf Children Ame and Yuki
Страна: Япония
Год выпуска: 2012 г.
Жанр: драма, повседневность, фантастика
Тип: полнометражный фильм
Продолжительность: 118 мин.
Режиссер: Хосода Мамору
Студия: Studio Chizu
Описание: Юки и Амэ — только с виду обычные дети, которым должны быть нипочем тяготы окружающего мира. Когда погибает их отец, последний представитель древнего рода оборотней, их матери — обыкновенной девушке, когда-то влюбившейся в человека, оказавшегося волком — приходится переехать подальше от большого города и начать все сначала.
Качество: BDRip (DS of Commie)
Тип релиза: Без хардсаба
Формат видео: AVI
Релиз/Автор рипа: zzzHELLPLAYERzzz
Совместимость с бытовыми плеерами: Да
Видео: XVID, 720x400, 1 662 Kbps, 23.976 fps
Аудио: AC3, 192 Kbps, 48KHz, 2ch Язык Русский (в составе контейнера) ; Озвучка: одноголосая (жен.) NASTR семпл
Аудио 2: AC3, 384 Kbps, 48KHz, 2ch Язык Японский
Субтитры: SRT, внешние Язык субтитров русский ; Перевод: Laertid & Canis
Подробные тех. данные
General
Complete name : F:\RIP\Ookami Kodomo no Ame to Yuki\1.avi
Format : AVI
Format/Info : Audio Video Interleave
File size : 1.84 GiB
Duration : 1h 57mn
Overall bit rate : 2 252 Kbps
Movie name : Волчьи дети Амэ и Юки / Ookami Kodomo no Ame to Yuki
Director : Sensetivity
Writing application : VirtualDubMod 1.5.10.3 | www.virtualdub-fr.org || (build 2550/release)
Writing library : VirtualDubMod build 2550/release
Video
ID : 0
Format : MPEG-4 Visual
Format profile : Advanced [email protected]
Format settings, BVOP : 2
Format settings, QPel : No
Format settings, GMC : No warppoints
Format settings, Matrix : Custom
Codec ID : XVID
Codec ID/Hint : XviD
Duration : 1h 57mn
Bit rate : 1 662 Kbps
Width : 720 pixels
Height : 400 pixels
Display aspect ratio : 16:9
Frame rate : 23.976 fps
Color space : YUV
Chroma subsampling : 4:2:0
Bit depth : 8 bits
Scan type : Progressive
Compression mode : Lossy
Bits/(Pixel*Frame) : 0.241
Stream size : 1.36 GiB (74%)
Writing library : XviD 1.2.1 (UTC 2008-12-04)
Audio #1
ID : 1
Format : AC-3
Format/Info : Audio Coding 3
Mode extension : CM (complete main)
Format settings, Endianness : Big
Codec ID : 2000
Duration : 1h 57mn
Bit rate mode : Constant
Bit rate : 192 Kbps
Channel(s) : 2 channels
Channel positions : Front: L R
Sampling rate : 48.0 KHz
Bit depth : 16 bits
Compression mode : Lossy
Stream size : 161 MiB (9%)
Alignment : Split accross interleaves
Interleave, duration : 42 ms (1.00 video frame)
Interleave, preload duration : 500 ms
Title : Русский
Audio #2
ID : 2
Format : AC-3
Format/Info : Audio Coding 3
Mode extension : CM (complete main)
Format settings, Endianness : Big
Codec ID : 2000
Duration : 1h 57mn
Bit rate mode : Constant
Bit rate : 384 Kbps
Channel(s) : 2 channels
Channel positions : Front: L R
Sampling rate : 48.0 KHz
Bit depth : 16 bits
Compression mode : Lossy
Stream size : 322 MiB (17%)
Alignment : Split accross interleaves
Interleave, duration : 42 ms (1.00 video frame)
Interleave, preload duration : 500 ms
Title : Японский
Доп. инфо.
Download
Для скачивания .torrent файлов необходима регистрация
Сайт не распространяет и не хранит электронные версии произведений, а лишь предоставляет доступ к создаваемому пользователями каталогу ссылок на торрент-файлы, которые содержат только списки хеш-сумм
[Профиль]  [ЛС] 

DeNzs3721

Стаж: 9 лет 3 месяца

Сообщений: 2


DeNzs3721 · 15-Мар-13 23:21 (спустя 9 часов)

[Цитировать] 

Спасибо за раздачу!
zzzHELLPLAYERzzz
Позарез скажи в какой серии была эта картинка.
P.S. Заранее спасибо.
[Профиль]  [ЛС] 

zzzHELLPLAYERzzz

Стаж: 8 лет 5 месяцев

Сообщений: 1106

zzzHELLPLAYERzzz · 16-Мар-13 11:12 (спустя 11 часов)

[Цитировать] 

DeNzs3721
не знаю, я увидел ету картинку у кого-то на форуме и скопировал себе.
[Профиль]  [ЛС] 

Hydrogenium

Top Seed 02* 80r

Стаж: 9 лет

Сообщений: 2063

Hydrogenium · 16-Мар-13 11:56 (спустя 43 мин.)

[Цитировать] 

zzzHELLPLAYERzzz
DeNzs3721
Ребят, да вы что никогда не видели клип What is love with Jim Carrey?! Эта картинка - просто пародия на него, сделанная в видео редакторе)
[Профиль]  [ЛС] 

Eldarlicious

Стаж: 11 лет 8 месяцев

Сообщений: 188

Eldarlicious · 16-Мар-13 16:17 (спустя 4 часа, ред. 16-Мар-13 19:02)

[Цитировать] 

DeNzs3721
Утраченное небесами
Mentalist_ писал(а):
58389692Но впечатление всё подпортил пацан.
Согласен. Раздающему спасибо.
[Профиль]  [ЛС] 

Tokvemada

Стаж: 8 лет 10 месяцев

Сообщений: 13


Tokvemada · 27-Мар-13 18:26 (спустя 11 дней)

[Цитировать] 

СПАСИБО!!!!!!!!СПАСИБО!!!!!!!!СПАСИБО!!!!!!!!СПАСИБО!!!!!!!!СПАСИБО!!!!!!!!
СПАСИБО!!!!!!!!СПАСИБО!!!!!!!!СПАСИБО!!!!!!!!СПАСИБО!!!!!!!!СПАСИБО!!!!!!!!СПАСИБО!!!!!!!!
СПАСИБО!!!!!!!!СПАСИБО!!!!!!!!СПАСИБО!!!!!!!!СПАСИБО!!!!!!!!СПАСИБО!!!!!!!!СПАСИБО!!!!!!!!СПАСИБО!!!!!!!!
СПАСИБО!!!!!!!!СПАСИБО!!!!!!!!СПАСИБО!!!!!!!!СПАСИБО!!!!!!!!СПАСИБО!!!!!!!!
[Профиль]  [ЛС] 

Rolla93

Стаж: 7 лет 1 месяц

Сообщений: 4


Rolla93 · 28-Мар-13 00:00 (спустя 5 часов)

[Цитировать] 

Спасибо большое, очень понравилось. Захватило с самого начала )))
Просто ОГРОМНЕЙШЕЕ СПАСИБО
[Профиль]  [ЛС] 

Cerzen

Стаж: 8 лет 8 месяцев

Сообщений: 408

Cerzen · 05-Апр-13 12:04 (спустя 8 дней, ред. 05-Апр-13 12:04)

[Цитировать] 

Если смотреть с субтитрами и японской дорожкой - громкость приходится выставлять на максимум, и все равно очень слабый звук.
[Профиль]  [ЛС] 

ArseniyaGrotesk

Стаж: 9 лет

Сообщений: 1


ArseniyaGrotesk · 13-Апр-13 18:59 (спустя 8 дней)

[Цитировать] 

шикардос! отличный мульт!
[Профиль]  [ЛС] 

akelary

Стаж: 9 лет 10 месяцев

Сообщений: 146


akelary · 19-Май-13 13:07 (спустя 1 месяц 5 дней)

[Цитировать] 

Японская дорожка - очень слабый звук!
За раздачу спасибо, но смотреть неудобно.
[Профиль]  [ЛС] 

SYDZAKU Кровавый Феникс 2

Стаж: 6 лет 10 месяцев

Сообщений: 59

SYDZAKU Кровавый Феникс 2 · 15-Июн-13 00:59 (спустя 26 дней)

[Цитировать] 

Очень хорошее аниме!!
[Профиль]  [ЛС] 

Cinbri

Стаж: 7 лет 6 месяцев

Сообщений: 9


Cinbri · 01-Июл-13 16:49 (спустя 16 дней)

[Цитировать] 

Возможно я чего-то не пойму, но здесь есть русская озвучка ?У меня никаких аудиодорожек нету
[Профиль]  [ЛС] 

Murd3r

Стаж: 8 лет 7 месяцев

Сообщений: 106

Murd3r · 10-Июл-13 00:06 (спустя 8 дней)

[Цитировать] 

Спасибо! Обычно, смотрю аниме с сабами из-за слабой озвучки, но в этой раздаче озвучка выше всяких похвал.
[Профиль]  [ЛС] 

zzzHELLPLAYERzzz

Стаж: 8 лет 5 месяцев

Сообщений: 1106

zzzHELLPLAYERzzz · 10-Июл-13 22:28 (спустя 22 часа)

[Цитировать] 

Cinbri писал(а):
59928515Возможно я чего-то не пойму, но здесь есть русская озвучка ?У меня никаких аудиодорожек нету
Есть, стоит по умолчанию.
[Профиль]  [ЛС] 

krasav4ik1991

Стаж: 8 лет 10 месяцев

Сообщений: 3


krasav4ik1991 · 06-Ноя-13 23:18 (спустя 3 месяца 27 дней)

[Цитировать] 

кто нибудь знает будет ли продолжение этого прекрасного анимэ?
[Профиль]  [ЛС] 

zzzHELLPLAYERzzz

Стаж: 8 лет 5 месяцев

Сообщений: 1106

zzzHELLPLAYERzzz · 11-Дек-13 15:18 (спустя 1 месяц 4 дня)

[Цитировать] 

krasav4ik1991 писал(а):
61607863кто нибудь знает будет ли продолжение этого прекрасного анимэ?
Врятли.
[Профиль]  [ЛС] 

zwwer

Стаж: 9 лет 7 месяцев

Сообщений: 30

zwwer · 25-Апр-14 17:52 (спустя 4 месяца 14 дней, ред. 25-Апр-14 17:52)

[Цитировать] 

saludo_O писал(а):
63536432посоветуйте похожее
[Профиль]  [ЛС] 

saludo_O

Стаж: 4 года 10 месяцев

Сообщений: 2


saludo_O · 26-Апр-14 15:51 (спустя 21 час)

[Цитировать] 

zwwer
спасибо, встречаются отзывчивые люди)
[Профиль]  [ЛС] 

Naruto1234567

Стаж: 4 года 5 месяцев

Сообщений: 68

Naruto1234567 · 11-Дек-14 20:00 (спустя 7 месяцев, ред. 11-Дек-14 20:00)

[Цитировать] 

ОООО! КАЖИСЬ НАШЁЛ НОВУЮ АНИМЭШКУ ПО ТЕМЕ! (ОБОЖАЮ ЛИС, ОБОРОТНЕЙ, ЁКАЕВ, ТЕНГУ, ООКАМИ И ПРОЧЕЕ!:))
[Профиль]  [ЛС] 
 
Ответить
Loading...
Error