Небесный замок Лапута / Laputa: The Castle in the Sky (Хаяо Миядзаки) [Movie][без хардсаба] [RUS(int), JAP + SUB] [1986, фантастика, фэнтези, приключения, семейный, BDRip][HWP]

Страницы:  1

Ответить
Автор
Сообщение

Pustovetov

AVC-Видео

Стаж: 10 лет 6 месяцев

Сообщений: 4412

Pustovetov · 27-Дек-10 08:24 (7 лет 4 месяца назад, ред. 01-Май-12 15:53)

Небесный замок Лапута / Laputa: The Castle in the Sky
Год выпуска: 1986
Жанр: фантастика, фэнтези, приключения, семейный
Продолжительность: полнометражный фильм, 124 мин.
Перевод: Полное дублирование - Ruscico
Русские субтитры: есть ( c DVD) - SRT
Режиссер: Хаяо Миядзаки
Сценарий: Хаяо Миядзаки
Студия:
Описание: Альтернативная реальность, соответствующая началу XX века. В руках девочки по имени Сита находится Летающий Камень. За ним охотятся агенты правительства и пираты, потому что Камень представляет огромную ценность. Пытаясь скрыться от преследователей, Сита встречает Пазу, своего ровесника, работающего в шахтерском городке. Вместе дети выясняют, что Камень - ключ к таинственному летающему острову Лапуте...
Качество: BDRip
Формат: AVI
Видео кодек: XviD
Аудио кодек: AC3
Видео: 704x384, 23.976 fps, cq=2, 1890 kbps
Аудио: RUS - AC3, stereo, 48 kHz, 192 kbps; JPN - AC3, stereo, 48 kHz, 192 kbps
Скриншоты
Сравнение с конкурирующими релизами
От этих - http://rutracker.org/forum/viewtopic.php?t=3096946, http://rutracker.org/forum/viewtopic.php?t=2638590, http://rutracker.org/forum/viewtopic.php?t=2628582 совместимость с бытовыми двд-плеерами
От этих http://rutracker.org/forum/viewtopic.php?t=536209 и http://rutracker.org/forum/viewtopic.php?t=597114 отличаемся наличием японской озвучки + субтитров и лучшим качеством видео.
Сравнительные скриншоты
Скриншот моего рипа идет вторым





MediaInfo
General
Complete name : E:\Laputa\Laputa - The Castle in the Sky.avi
Format : AVI
Format/Info : Audio Video Interleave
Format profile : OpenDML
File size : 2.01 GiB
Duration : 2h 4mn
Overall bit rate : 2 313 Kbps
Writing application : VirtualDubMod 1.5.4.1 (build 2178/release)
Writing library : VirtualDubMod build 2178/release
Video
ID : 0
Format : MPEG-4 Visual
Format profile : Advanced [email protected]
Format settings, BVOP : 2
Format settings, QPel : No
Format settings, GMC : No warppoints
Format settings, Matrix : Default (MPEG)
Codec ID : XVID
Codec ID/Hint : XviD
Duration : 2h 4mn
Bit rate : 1 910 Kbps
Width : 704 pixels
Height : 384 pixels
Display aspect ratio : 1.85:1
Frame rate : 23.976 fps
Color space : YUV
Chroma subsampling : 4:2:0
Bit depth : 8 bits
Scan type : Progressive
Compression mode : Lossy
Bits/(Pixel*Frame) : 0.295
Stream size : 1.66 GiB (83%)
Writing library : XviD 1.3.0.dev55
Audio #1
ID : 1
Format : AC-3
Format/Info : Audio Coding 3
Mode extension : CM (complete main)
Format settings, Endianness : Big
Codec ID : 2000
Duration : 2h 4mn
Bit rate mode : Constant
Bit rate : 192 Kbps
Channel(s) : 2 channels
Channel positions : Front: L R
Sampling rate : 48.0 KHz
Bit depth : 16 bits
Compression mode : Lossy
Stream size : 171 MiB (8%)
Alignment : Split accross interleaves
Interleave, duration : 42 ms (1.00 video frame)
Interleave, preload duration : 500 ms
Audio #2
ID : 2
Format : AC-3
Format/Info : Audio Coding 3
Format profile : Dolby Digital
Mode extension : CM (complete main)
Format settings, Endianness : Big
Codec ID : 2000
Duration : 2h 4mn
Bit rate mode : Constant
Bit rate : 192 Kbps
Channel(s) : 2 channels
Channel positions : Front: L R
Sampling rate : 48.0 KHz
Bit depth : 16 bits
Compression mode : Lossy
Stream size : 171 MiB (8%)
Alignment : Split accross interleaves
Interleave, duration : 42 ms (1.00 video frame)
Interleave, preload duration : 500 ms
Download
Для скачивания .torrent файлов необходима регистрация
Сайт не распространяет и не хранит электронные версии произведений, а лишь предоставляет доступ к создаваемому пользователями каталогу ссылок на торрент-файлы, которые содержат только списки хеш-сумм
[Профиль]  [ЛС] 

BonesCrasher

Стаж: 9 лет 9 месяцев

Сообщений: 65


BonesCrasher · 27-Дек-10 16:00 (спустя 7 часов, ред. 27-Дек-10 16:00)

[Цитировать] 

Первые скриншоты (не из вашего рипа) лучше. .
Настоятельно рекомендую вам бросить перерипинг для уже существующих топиков тайтлов.
Например, Планеты вашего релиза первые 13 серий ещё терпимо, но вторая половина - рипы низкого качества (видеоряд) - ощутимо заметно квадратит при просмотре как раз HWP-средством.
(.
То же в принципе можно сказать и о вашем HWP-рипе (целиком) Утены (.
С наступающим.
.
[Профиль]  [ЛС] 

metafizik

Стаж: 7 лет 10 месяцев

Сообщений: 57


metafizik · 02-Янв-11 15:45 (спустя 5 дней)

[Цитировать] 

BonesCrasher
Цитата:
Первые скриншоты лучше
Не лучше, а заметно хуже - и по детализации и по артефактам кодирования. Другое дело, что тут BD, а там DVD с немного другими цветами и общим более высоким уровнем яркости. Низкая яркость BD не всем, конечно, понравится. Но тут претензии уже к студии - стоило ли им, переделывая в высокое разрешение, настолько сильно яркость понижать.
[Профиль]  [ЛС] 

Корочка хлеба

Стаж: 7 лет 5 месяцев

Сообщений: 11


Корочка хлеба · 27-Янв-11 20:56 (спустя 25 дней, ред. 27-Янв-11 23:26)

[Цитировать] 

сообщение не актуально. Как удалить - не знаю.
[Профиль]  [ЛС] 

animebog

Стаж: 8 лет 11 месяцев

Сообщений: 108

animebog · 27-Янв-11 22:16 (спустя 1 час 19 мин.)

[Цитировать] 

Pustovetov
Цитата:
Русские субтитры: есть ( c DVD) - SRT
А можно спросить с какого DVD субтитры? Мне они известны, как "старый" перевод Tolstobrov'а. Очень бы хотелось бы увидеть новые R5-субтитры.
[Профиль]  [ЛС] 

Namtar24

Стаж: 8 лет 10 месяцев

Сообщений: 26


Namtar24 · 21-Фев-11 00:26 (спустя 24 дня)

[Цитировать] 

скачаю,гляну,по тв показывали.мне понравилось.
[Профиль]  [ЛС] 

Namtar24

Стаж: 8 лет 10 месяцев

Сообщений: 26


Namtar24 · 25-Фев-11 11:31 (спустя 4 дня)

[Цитировать] 

мульт хороший,только вот как раздать побольше?
[Профиль]  [ЛС] 

славуч

Стаж: 9 лет 8 месяцев

Сообщений: 268


славуч · 05-Мар-11 18:13 (спустя 8 дней, ред. 20-Ноя-11 16:19)

[Цитировать] 

Очень хорошее качество и дубляж понравился! Большое спасибо!
Правда, по культуре когда крутили, была другая озвучка, и тоже , кажется, дубляж.
[Профиль]  [ЛС] 

Cheater

Стаж: 9 лет 4 месяца

Сообщений: 25

Cheater · 06-Мар-11 00:28 (спустя 6 часов)

[Цитировать] 

Вот это класс! Посмотрел и такое чувство приятное, словно... даже не знаю как описать =). ОСТ в конце просто замечательный.
Озвучка понравилась, качество тоже.
[Профиль]  [ЛС] 

joys.fershal

Стаж: 9 лет 7 месяцев

Сообщений: 9

joys.fershal · 27-Мар-11 22:00 (спустя 21 день)

[Цитировать] 

Шикарнейший фильм!
Качество и перевод в т.ч. на высоте!
[Профиль]  [ЛС] 

sav1va

Стаж: 7 лет 4 месяца

Сообщений: 41


sav1va · 01-Апр-11 14:45 (спустя 4 дня)

[Цитировать] 

Спасибо за раздачу!
Качество и звук - отличные.
[Профиль]  [ЛС] 

RusBarboss1

Стаж: 7 лет 8 месяцев

Сообщений: 101


RusBarboss1 · 08-Сен-11 13:40 (спустя 5 месяцев 6 дней)

[Цитировать] 

Спасибо! Вообще не переношу аниме, но для этой прелести можно сделать исключение
[Профиль]  [ЛС] 

shingo3

Стаж: 6 лет 10 месяцев

Сообщений: 240

shingo3 · 01-Май-12 15:13 (спустя 7 месяцев)

[Цитировать] 

благодарю,самый мой любимый фильм у Гибли!
[Профиль]  [ЛС] 

DиверсанТ

Стаж: 7 лет 7 месяцев

Сообщений: 61


DиверсанТ · 16-Фев-13 16:00 (спустя 9 месяцев)

[Цитировать] 

Наконец нашел небольшой рип с дубляжом! спасибо большое!
[Профиль]  [ЛС] 

gslla

Стаж: 8 лет 4 месяца

Сообщений: 6

gslla · 29-Июн-13 04:35 (спустя 4 месяца 12 дней)

[Цитировать] 

Отличный мульт. При перекидывании его с одного HDD на внешний USB HDD куда то пропали последние 5 минут мультика, вот теперь скачиваю повторно. Скорость загрузки 35 мегабит, при том что тариф у меня 5 мегабит всё таки бывают чудеса
[Профиль]  [ЛС] 
 
Ответить
Loading...
Error