Битва за Салют. Космический детектив [2011, Документальный, DVB]

Страницы:  1

Ответить
Автор
Сообщение

kuzmichm2196

RG Документалисты

Стаж: 8 лет 10 месяцев

Сообщений: 2204

kuzmichm2196 · 16-Дек-11 02:51 (7 лет назад)

Битва за Салют. Космический детектив
Год выпуска: 2011
Страна: Россия
Жанр: Документальный
Продолжительность: 00:43:56
Перевод: Не требуется
Описание: 1985 год. Обычный старт космического корабля с обычным экипажем на борту. Пятый полет Владимира Джанибекова и третий Виктора Савиных. Задача - состыковаться со станцией "Салют-7" и провести на борту ряд технических экспериментов и регламентные работы. Такова была официальная версия этого полета. На самом деле в космос отправлялись смертники, которые должны были остановить падение неуправляемой космической станции. Или вместе с ней сойти с орбиты и сгореть в плотных слоях атмосферы. Только сегодня стало известно, какой катастрофы избежал мир весной 85-го. Неуправляемая русская космическая станция, американский челнок с Героем Советского Союза на борту, секретная программа Пентагона и политическая война в Кремле среди членов Политбюро ЦК КПСС... Эти пять факторов, сойдясь воедино, едва не стоили жизни полумиллиарду человек. О том, что происходило на орбите Земли, о фактах, которые повлияли на спасение мира от уничтожения, и о героях, совершивших в космосе невозможное, этот фильм.
Качество: DVB
Формат: MPEG
Видео кодек: MPEG2
Аудио кодек: MPEG1 Layer 2
Видео: MPEG2 Video 720x576 (4:3) 25.00fps ~2 500 Kbps
Аудио: MPEG Audio 48000Hz 2 channels 192 Кбит/сек
MediaInfo
H:\888-mpeg\Битва за Салют. Космический детектив_DVB by kuzmichm2196 .mpg
General
Complete name : H:\888-mpeg\Битва за Салют. Космический детектив_DVB by kuzmichm2196 .mpg
Format : MPEG-PS
File size : 867 MiB
Duration : 43mn 56s
Overall bit rate : 2 757 Kbps
Writing library : (c) 1998-2008 Womble Multimedia, Inc. / MPEG Video Wizard (08/2008) / Aug 25 2008
Video #224
ID : 224 (0xE0)
Format : MPEG Video
Format version : Version 2
Format profile : [email protected]
Format settings, BVOP : Yes
Format settings, Matrix : Custom
Format settings, GOP : M=3, N=24
Duration : 43mn 56s
Bit rate mode : Variable
Bit rate : 2 511 Kbps
Nominal bit rate : 15.0 Mbps
Width : 720 pixels
Height : 576 pixels
Display aspect ratio : 4:3
Frame rate : 25.000 fps
Standard : PAL
Color space : YUV
Chroma subsampling : 4:2:0
Bit depth : 8 bits
Scan type : Interlaced
Scan order : Top Field First
Compression mode : Lossy
Bits/(Pixel*Frame) : 0.242
Stream size : 789 MiB (91%)
Writing library : (c) 1998-2008 Womble Multimedia, Inc. / MPEG Video Wizard (08/2008) / Aug 25 2008
Audio #192
ID : 192 (0xC0)
Format : MPEG Audio
Format version : Version 1
Format profile : Layer 2
Duration : 43mn 56s
Bit rate mode : Constant
Bit rate : 192 Kbps
Channel(s) : 2 channels
Sampling rate : 48.0 KHz
Compression mode : Lossy
Stream size : 60.3 MiB (7%)
Download
Для скачивания .torrent файлов необходима регистрация
Сайт не распространяет и не хранит электронные версии произведений, а лишь предоставляет доступ к создаваемому пользователями каталогу ссылок на торрент-файлы, которые содержат только списки хеш-сумм
[Профиль]  [ЛС] 

Гость


Гость · 16-Дек-11 23:21 (спустя 20 часов, ред. 16-Дек-11 23:21)

[Цитировать] 

у наука 2.0 плохой сигнал и качество.
http://rutracker.org/forum/viewtopic.php?t=3801159
и вопрос что уже Н264 хуже мпег2 галимого?
http://rutracker.org/forum/viewtopic.php?t=3804021
 

kuzmichm2196

RG Документалисты

Стаж: 8 лет 10 месяцев

Сообщений: 2204

kuzmichm2196 · 18-Дек-11 10:07 (спустя 1 день 10 часов, ред. 18-Дек-11 10:07)

[Цитировать] 

Global Ural писал(а):
у наука 2.0 плохой сигнал и качество.
http://rutracker.org/forum/viewtopic.php?t=3801159
Уменя нет полуторометровой тарелки чтоб риповать со спутника Express AM2 80E как это делает КЛИПМАН (за что ему большое спасибо) поэтому раздаём что есть.
Страно раньше почемуто поиском эту раздачу ненаходил.
и вопрос что уже Н264 хуже мпег2 галимого?
http://rutracker.org/forum/viewtopic.php?t=3804021
непережатый сегнал с высоким битрейтом будет по качеству всегда лучше чем пережатый любым кодаком, особено это заметно на больших телеках 40 дюймов и больше.
Хотя ту раздачу можно было бы и не закрывать , люди с узким каналом качали бы её .
[Профиль]  [ЛС] 
 
Ответить
Loading...
Error