Relax Romantic Spa Vol.2 - Sensual Delights [2008, Visual Meditation, Relax, (by music Leonardo Tossi, Arno, Mind Over Matter, Megabyte, Blue Kinghts, Symbian / Venja, Interface, Dancing Fantasy, Christopher Santorro), DVDRip]

Страницы:  1

Ответить
Автор
Сообщение

Master-daO

Top Seed 03* 160r

Стаж: 9 лет 6 месяцев

Сообщений: 1414

Master-daO · 29-Ноя-11 00:39 (6 лет 8 месяцев назад, ред. 30-Дек-11 03:34)

Relax Romantic Spa Vol.2 - Sensual Delights Страна: Россия
Жанр: Visual Meditation, Relax
Продолжительность: 63:00
Год выпуска: 2008 г.
Описание:
Близится конец недели?
Скоро долгожданное свидание? Просто хочется красиво отдохнуть?
Поставьте этот фильм на ваш проигрыватель – и… ВСЕ УЖЕ НАЧАЛОСЬ!

Треклист:
01 ... Leonardo Tossi - Magic of Life ... 4:43
02 ... Arno - September Rain ... 7:06
03 ... Mind Over Matter - Brahman ... 5:56
04 ... Megabyte - Relax ... 4:50
05 ... Blue Kinghts - Soft Farewell ... 3:17
06 ... Symbian / Venja - Perpetual Flow ... 8:26
07 ... Interface - Sands of Time ... 4:37
08 ... Blue Kinghts - Soft Silk ... 3:37
09 ... Blue Kinghts - Nightfall ... 4:16
10 ... Dancing Fantasy - Cairo Whispers ... 4:55
11 ... Leonardo Tossi - Romance ... 2:32
12 ... Christopher Santorro - Garden of Silemce ... 11:39
Доп. информация: - Soundtrack - этого Видео
Чувственные наслаждения…естественно, они познаются через чувства. Эти образы вы почувствуете зрительно, их красоту и мягкость, тонкость восприятия и наслаждение от этой тонкости… сопровождающее звучание поддержит высокий полет происходящего своим обволакивающим поистине незримым присутствием.
Видеоряд предлагаемой программы идеален как сопровождение для красивого, тихого и спокойного вечера у себя дома. Прекрасные дамы могут «почистить перышки» и стать еще прекраснее или пригласить подруг на чашечку сладкого. Джентльмены предпочтут коньяк, сигары и неспешную беседу… Романтический ужин при свечах в окружении красивых образов и нежных мелодий окажется волшебным!

Пред. просмотр
DVDInfo
General
Complete name : F:\_b.Obrabotka\[2.- DVDRip\Relax Romantic Spa Vol.2 - Sensual Delights.avi
Format : AVI
Format/Info : Audio Video Interleave
File size : 744 MiB
Duration : 1h 5mn
Overall bit rate : 1 580 Kbps
Writing application : VirtualDubMod 1.5.10.3 | www.virtualdub-fr.org || (build 2550/release)
Writing library : VirtualDubMod build 2550/release
Video
ID : 0
Format : MPEG-4 Visual
Format profile : Advanced [email protected]
Format settings, BVOP : Yes
Format settings, QPel : No
Format settings, GMC : No warppoints
Format settings, Matrix : Custom
Codec ID : XVID
Codec ID/Hint : XviD
Duration : 1h 5mn
Bit rate : 1 314 Kbps
Width : 640 pixels
Height : 480 pixels
Display aspect ratio : 4:3
Frame rate : 25.000 fps
Color space : YUV
Chroma subsampling : 4:2:0
Bit depth : 8 bits
Scan type : Progressive
Compression mode : Lossy
Bits/(Pixel*Frame) : 0.171
Stream size : 619 MiB (83%)
Writing library : XviD 1.2.1 (UTC 2008-12-04)
Audio
ID : 1
Format : AC-3
Format/Info : Audio Coding 3
Mode extension : CM (complete main)
Codec ID : 2000
Duration : 1h 5mn
Bit rate mode : Constant
Bit rate : 256 Kbps
Channel(s) : 2 channels
Channel positions : Front: L R
Sampling rate : 48.0 KHz
Bit depth : 16 bits
Compression mode : Lossy
Stream size : 121 MiB (16%)
Alignment : Split accross interleaves
Interleave, duration : 40 ms (1.00 video frame)
Interleave, preload duration : 500 ms

Источник: собственный рип
Cсылка - DVD
Качество: DVDRip
Контейнер: AVI
Видео кодек: DivX
Аудио кодек: AC3
Видео: MPEG-4, 640x480, 4:3, 1 314 Kbps, 25.000 fps
Аудио: 2.0 Dolby Digital, 48.0 KHz, 256 Kbps, 16 bits
В этой серии - И - другие серии


~ Смотреть мои - DVD ~ (скачать) ~
~ Смотреть DVD - BUDDHA'S BANQUET - Music Lounge (скачать) ~
~ Смотреть DVD - Dan Gibson's - Solitudes 25 - (Collection 25e Anniversaire) - Natural Beauty (скачать) ~
~ Смотреть DVD - Непал, Тибет - музыкальное путишествие - Nepal, Tibet (скачать) ~
~ Смотреть DVD - Peter Buffett - Spirit The Seventh Fire (скачать) ~
~ Смотреть DVD - Planet Earth - Magic Relax Music (скачать) ~
~ Смотреть DVD - Planet Earth in Lounge Music - Vol.1 E-xception (скачать) ~
~ Смотреть DVD - Planet Earth in Lounge Music - Vol.2 E-motion (скачать) ~
~ Смотреть DVD - Planet Earth in Lounge Music - Vol.3 E-nigmatic (скачать) ~
~ Смотреть DVD - Planet Earth in Lounge Music - Vol.4 @dmiration (скачать) ~
~ Смотреть DVD - Planet Earth in Lounge Music - Vol.5 Contemplation (скачать) ~
~ Смотреть DVD - Planet Earth in Lounge Music - Vol.6 E-lectro (скачать) ~
~ Смотреть DVD - Planet Earth in Lounge Music - Vol.7 E-xtreme (скачать) ~
~ Смотреть DVD - Planet Earth in Lounge Music - Vol.8 @nimal (скачать) ~
~ Смотреть DVD - Planet Earth in Lounge Music - Vol.9 Coloration (скачать) ~
~ Смотреть DVD - Planet Earth in Lounge Music - Vol.10 Pulse (скачать) ~
~ Смотреть DVD - Relax Romantic Spa Vol.5 - Spa Relaxation (скачать) ~
~ Смотреть DVD - Relax Video - Великие водопады - New Age Music (скачать) ~
~ Смотреть DVD - Seychelles Islands (скачать) ~
Download
Для скачивания .torrent файлов необходима регистрация
Сайт не распространяет и не хранит электронные версии произведений, а лишь предоставляет доступ к создаваемому пользователями каталогу ссылок на торрент-файлы, которые содержат только списки хеш-сумм
[Профиль]  [ЛС] 

Master-daO

Top Seed 03* 160r

Стаж: 9 лет 6 месяцев

Сообщений: 1414

Master-daO · 29-Ноя-11 00:45 (спустя 5 мин., ред. 05-Дек-11 08:39)

[Цитировать] 

ОЧЕНЬ рекомендую:
Relaxing Dreams - Discography - 25 albums
Nicolas Dri - Aqua Vitalite - 3.CD
_*_ G.E.N.E. - The Best Part I & II
Dan Gibson's - Discography - 219 albums

Guy Sweens - Discography - 3 albums


[Профиль]  [ЛС] 

Olu6ka

Top Seed 06* 1280r

Стаж: 10 лет 7 месяцев

Сообщений: 21955

Olu6ka · 29-Ноя-11 03:22 (спустя 2 часа 37 мин.)

[Цитировать] 

Master-daO
скрытый текст
поздравляю!
[Профиль]  [ЛС] 

Master-daO

Top Seed 03* 160r

Стаж: 9 лет 6 месяцев

Сообщений: 1414

Master-daO · 29-Ноя-11 09:04 (спустя 5 часов)

[Цитировать] 

Olu6ka
Спасибо! Бум стараться, старые рипы тоже бум переделывать.
[Профиль]  [ЛС] 

avatar-aang

VIP (Заслуженный)

Стаж: 10 лет 1 месяц

Сообщений: 3919

avatar-aang · 01-Дек-11 22:07 (спустя 2 дня 13 часов)

[Цитировать] 

Master-daO наконец то выложил рип
[Профиль]  [ЛС] 

Master-daO

Top Seed 03* 160r

Стаж: 9 лет 6 месяцев

Сообщений: 1414

Master-daO · 01-Дек-11 23:53 (спустя 1 час 45 мин., ред. 08-Дек-11 00:37)

[Цитировать] 

avatar-aang
Ндя, скоро и другие на подходе сам сделал. Тока ща времени в обрезЗЗЗЗы
[Профиль]  [ЛС] 
 
Ответить
Loading...
Error